#TITLE:S8107;
#SUBTITLE:;
#ARTIST:Djsmalls;
#TITLETRANSLIT:;
#SUBTITLETRANSLIT:;
#ARTISTTRANSLIT:;
#CREDIT:;
#BANNER:S8107 - banner.png;
#BACKGROUND:S8107 - background.png;
#LYRICSPATH:;
#CDTITLE:cdtitle.png;
#MUSIC:djsmalls - k8107 remix.mp3;
#OFFSET:-1.071;
#SAMPLESTART:36.900;
#SAMPLELENGTH:20.000;
#SELECTABLE:YES;
#BPMS:0.000=90.000,6.000=120.000,7.000=148.000,8.000=90.000,40.000=55.000,44.000=180.001,108.000=442.000,112.000=180.001,152.000=90.000,156.000=180.001,164.000=90.000,168.000=180.021,176.000=180.041,179.500=22.501,179.875=34.121,180.000=180.001;
#STOPS:;
#BGCHANGES:;
// cache tags:
#FIRSTBEAT:0.000;
#LASTBEAT:214.500;
#SONGFILENAME:Songs/Music V.I.P ^_^/Smalls8107/blankdwifile.sm;
#HASMUSIC:1;
#HASBANNER:1;
#MUSICLENGTH:96.425;
// end cache tags

//---------------dance-single - ----------------
#NOTES:
     dance-single:
     :
     Easy:
     1:
     0.000,0.000,0.000,0.000,0.000,0.000,0.000,0.000,0.000,0.000:
0000
0000
0000
0000
;

//---------------dance-single - Copied from----------------
#NOTES:
     dance-single:
     Copied from:
     Hard:
     1:
     0.959,1.000,0.436,0.280,0.897,578.000,42.000,27.000,0.000,1.000:
1000
1000
0000
0000
0010
0010
1000
1000
0010
0010
0000
0000
0001
0001
0000
0000
,
0010
0010
0000
0000
0100
0000
0100
0100
1000
1000
0000
0000
0001
0001
0000
0000
,
0010
0000
2000
3000
0110
0000
0001
0001
0020
0030
1000
0000
0011
0000
0100
0000
,
1001
0000
0020
0030
0100
0000
1000
1000
0100
0000
0020
0030
1001
0000
0100
0000
,
0011
0000
0200
0300
1000
0000
0100
0100
0010
0000
0002
0003
0110
0000
1000
0000
,
0011
0000
0200
0300
1000
0000
0010
0010
0001
0000
2000
3000
0110
0000
0001
0000
,
1100
0000
0200
0300
0010
0000
0001
0001
0010
0000
0200
0300
0011
0000
0100
0000
,
1001
0000
0200
0300
0010
0000
0001
0001
0010
0000
0200
0300
0011
0000
1100
0000
,
0011
0000
0200
0300
1000
0000
0100
0100
0010
0000
0002
0003
0110
0000
1100
0000
,
0011
0000
0200
0300
0010
0000
0010
0100
0001
0000
0020
0030
0100
0000
1001
0000
,
2002
0000
0000
0000
0000
0000
0000
3003
,
1000
0100
0010
0100
0001
0010
0001
0100
1000
0001
0100
1000
0010
0001
0100
1000
,
0010
0100
0001
0010
0001
1000
0010
0100
0001
0010
0001
1000
0010
0100
0001
0010
,
0100
0001
0100
0010
1000
0001
0100
1000
0010
0100
0010
0100
0001
1000
0100
0010
,
0001
0100
0001
0010
0100
0001
0100
0010
1000
0001
0100
1000
0010
0100
0001
0010
,
1000
0100
0001
0010
0100
0001
1000
0001
,
0100
0010
0001
1000
0001
0100
0010
0001
,
1000
0001
0100
0010
0001
0100
1000
0001
,
0100
0001
0010
0100
0001
1000
0100
0001
,
1000
0100
1000
0100
1000
0100
1000
0100
1000
0010
0001
0010
0001
0010
0001
0010
,
0001
0100
0010
0100
0010
0100
0010
0100
0001
1000
0001
1000
0001
1000
0001
1000
,
0001
0100
0010
1000
0010
0100
1000
0010
0100
0001
0010
1000
0001
0100
0001
0010
,
0100
0001
0100
1000
0001
0010
0100
1000
0001
0010
0001
0100
1000
0010
0001
0100
,
0010
1000
0010
0001
0100
0010
0001
1000
,
0001
0100
0010
0001
1000
0100
0001
0010
,
0100
0001
1000
0001
0010
0100
0010
0001
,
1000
0010
0100
0001
0100
0010
0001
1000
,
0220
0000
0000
0330
,
1000
0000
0100
0000
0001
0010
0100
1000
0001
0000
0100
0010
1000
0000
0010
0000
,
0100
0000
0001
1000
0010
0001
0100
0000
0001
0000
1000
0100
0010
0000
0001
0000
,
0100
0000
0001
1000
0010
0001
0100
0000
0001
0010
1000
0000
0010
0000
0100
0000
,
2001
0000
3000
0000
0100
0000
0000
0000
0100
0000
0000
0000
0100
0000
0001
0000
0010
0000
0100
0000
0010
0000
0001
0000
1000
0001
1000
0001
1000
0001
1000
0001
,
1001
1000
0001
0100
0010
0001
1000
0110
,
0001
0100
1000
0001
0100
1000
0010
1100
,
1001
0100
0001
0100
0010
0001
0100
1010
,
0001
0100
0001
1000
0100
0001
0100
0110
,
1001
0100
0001
0100
1000
0001
0100
0011
,
0100
1000
0001
0100
0010
0001
0100
1000
,
0001
0000
2000
0000
3011
0000
0100
0100
0011
0000
2000
3000
0110
0000
0001
0000
,
1000
0100
0001
0000
0100
1000
0010
0100
0001
0010
1000
0001
0100
1000
0001
0010
,
0100
1000
0010
0000
0001
0100
1000
0001
0100
0010
0001
1000
0100
0001
0010
1000
,
0001
0000
0200
0300
0011
0000
0010
0010
1100
0000
0002
0003
0110
0000
1001
0000
,
1000
0100
0010
0000
0001
0000
0010
0100
1000
0001
0100
0010
0001
0100
1000
0010
,
0100
0010
0001
0000
1000
0000
0100
0010
0001
0100
1000
0001
0100
0010
0001
1000
,
0001
0000
0000
0000
0010
0000
0000
0000
0100
0000
0000
0000
1000
0000
0000
0000
0001
0000
0000
0000
0010
0000
0000
0000
0100
0000
0000
0000
1000
0000
0000
0000
0001
0000
0000
0000
0010
0000
0000
0000
0100
0000
0000
0000
1000
0000
0000
0000
0001
0000
0000
0000
0010
0000
0000
0000
0100
1000
0100
0010
0001
1000
0100
0010
,
1000
1000
1000
1000
1000
1000
1000
1000
0100
0100
0100
0100
0100
0010
0010
0010
,
0001
0001
0001
0001
0001
0001
0001
0001
0010
0010
0010
0010
0100
0100
0100
0100
,
1000
1000
1000
1000
1000
1000
1000
1000
0100
0100
0100
0100
0010
0010
0010
0010
,
0001
0001
0001
0001
0001
0001
0001
0001
0010
0010
0010
0010
0100
0100
0100
0100
,
1001
0010
0100
0001
1000
0100
1000
0100
,
1001
0100
1000
0001
1000
0100
0001
0100
,
1010
0001
0100
0001
0100
1000
0001
0100
,
1010
0001
0100
1000
0110
0001
0100
0010
,
2002
0000
0000
0000
0000
3003
0000
0000
;

//---------------dance-single - Copied from Copied f----------------
#NOTES:
     dance-single:
     Copied from Copied f:
     Beginner:
     1:
     0.959,1.000,0.436,0.280,0.897,578.000,42.000,27.000,0.000,1.000:
1000
1000
0000
0000
0010
0010
1000
1000
0010
0010
0000
0000
0001
0001
0000
0000
,
0010
0010
0000
0000
0100
0000
0100
0100
1000
1000
0000
0000
0001
0001
0000
0000
,
0010
0000
2000
3000
0110
0000
0001
0001
0020
0030
1000
0000
0011
0000
0100
0000
,
1001
0000
0020
0030
0100
0000
1000
1000
0100
0000
0020
0030
1001
0000
0100
0000
,
0011
0000
0200
0300
1000
0000
0100
0100
0010
0000
0002
0003
0110
0000
1000
0000
,
0011
0000
0200
0300
1000
0000
0010
0010
0001
0000
2000
3000
0110
0000
0001
0000
,
1100
0000
0200
0300
0010
0000
0001
0001
0010
0000
0200
0300
0011
0000
0100
0000
,
1001
0000
0200
0300
0010
0000
0001
0001
0010
0000
0200
0300
0011
0000
1100
0000
,
0011
0000
0200
0300
1000
0000
0100
0100
0010
0000
0002
0003
0110
0000
1100
0000
,
0011
0000
0200
0300
0010
0000
0010
0100
0001
0000
0020
0030
0100
0000
1001
0000
,
2002
0000
0000
0000
0000
0000
0000
3003
,
1000
0100
0010
0100
0001
0010
0001
0100
1000
0001
0100
1000
0010
0001
0100
1000
,
0010
0100
0001
0010
0001
1000
0010
0100
0001
0010
0001
1000
0010
0100
0001
0010
,
0100
0001
0100
0010
1000
0001
0100
1000
0010
0100
0010
0100
0001
1000
0100
0010
,
0001
0100
0001
0010
0100
0001
0100
0010
1000
0001
0100
1000
0010
0100
0001
0010
,
1000
0100
0001
0010
0100
0001
1000
0001
,
0100
0010
0001
1000
0001
0100
0010
0001
,
1000
0001
0100
0010
0001
0100
1000
0001
,
0100
0001
0010
0100
0001
1000
0100
0001
,
1000
0100
1000
0100
1000
0100
1000
0100
1000
0010
0001
0010
0001
0010
0001
0010
,
0001
0100
0010
0100
0010
0100
0010
0100
0001
1000
0001
1000
0001
1000
0001
1000
,
0001
0100
0010
1000
0010
0100
1000
0010
0100
0001
0010
1000
0001
0100
0001
0010
,
0100
0001
0100
1000
0001
0010
0100
1000
0001
0010
0001
0100
1000
0010
0001
0100
,
0010
1000
0010
0001
0100
0010
0001
1000
,
0001
0100
0010
0001
1000
0100
0001
0010
,
0100
0001
1000
0001
0010
0100
0010
0001
,
1000
0010
0100
0001
0100
0010
0001
1000
,
0220
0000
0000
0330
,
1000
0000
0100
0000
0001
0010
0100
1000
0001
0000
0100
0010
1000
0000
0010
0000
,
0100
0000
0001
1000
0010
0001
0100
0000
0001
0000
1000
0100
0010
0000
0001
0000
,
0100
0000
0001
1000
0010
0001
0100
0000
0001
0010
1000
0000
0010
0000
0100
0000
,
2001
0000
3000
0000
0100
0000
0000
0000
0100
0000
0000
0000
0100
0000
0001
0000
0010
0000
0100
0000
0010
0000
0001
0000
1000
0001
1000
0001
1000
0001
1000
0001
,
1001
1000
0001
0100
0010
0001
1000
0110
,
0001
0100
1000
0001
0100
1000
0010
1100
,
1001
0100
0001
0100
0010
0001
0100
1010
,
0001
0100
0001
1000
0100
0001
0100
0110
,
1001
0100
0001
0100
1000
0001
0100
0011
,
0100
1000
0001
0100
0010
0001
0100
1000
,
0001
0000
2000
0000
3011
0000
0100
0100
0011
0000
2000
3000
0110
0000
0001
0000
,
1000
0100
0001
0000
0100
1000
0010
0100
0001
0010
1000
0001
0100
1000
0001
0010
,
0100
1000
0010
0000
0001
0100
1000
0001
0100
0010
0001
1000
0100
0001
0010
1000
,
0001
0000
0200
0300
0011
0000
0010
0010
1100
0000
0002
0003
0110
0000
1001
0000
,
1000
0100
0010
0000
0001
0000
0010
0100
1000
0001
0100
0010
0001
0100
1000
0010
,
0100
0010
0001
0000
1000
0000
0100
0010
0001
0100
1000
0001
0100
0010
0001
1000
,
0001
0000
0000
0000
0010
0000
0000
0000
0100
0000
0000
0000
1000
0000
0000
0000
0001
0000
0000
0000
0010
0000
0000
0000
0100
0000
0000
0000
1000
0000
0000
0000
0001
0000
0000
0000
0010
0000
0000
0000
0100
0000
0000
0000
1000
0000
0000
0000
0001
0000
0000
0000
0010
0000
0000
0000
0100
1000
0100
0010
0001
1000
0100
0010
,
1000
1000
1000
1000
1000
1000
1000
1000
0100
0100
0100
0100
0100
0010
0010
0010
,
0001
0001
0001
0001
0001
0001
0001
0001
0010
0010
0010
0010
0100
0100
0100
0100
,
1000
1000
1000
1000
1000
1000
1000
1000
0100
0100
0100
0100
0010
0010
0010
0010
,
0001
0001
0001
0001
0001
0001
0001
0001
0010
0010
0010
0010
0100
0100
0100
0100
,
1001
0010
0100
0001
1000
0100
1000
0100
,
1001
0100
1000
0001
1000
0100
0001
0100
,
1010
0001
0100
0001
0100
1000
0001
0100
,
1010
0001
0100
1000
0110
0001
0100
0010
,
2002
0000
0000
0000
0000
3003
0000
0000
;
